Tutorial

Ffmpeg Error While Opening Codec For Output Stream #0.1

How to fix "An error occurred while opening a codec" XVID error (Sony Vegas)

RECOMMENDED: If you have Windows errors then we strongly recommend that you download and run this (Windows) Repair Tool.

Jan 1, 2013. The ffmpeg command I was after was: ffmpeg -i brain.flv brain.mov. but that produced the following errors:. Codec is experimental but experimental codecs are not enabled. Error while opening encoder for output stream #0:1 – maybe incorrect parameters such as bit_rate, rate, width or height. There are.

2010年6月25日. AACエンコードには何を使うか悩んだが、ffmpegと一緒にくっついてくるlibfaacは、 コードの一部がLGPLに乗っ取っていないとかっていうんで、コンパイルオプション. Stream #0.1 -> #0.1. Error while opening encoder for output stream #0.0 – maybe incorrect parameters such as bit_rate, rate, width or height. とりあえず.

Nov 21, 2007. Stream #0.0: Video: flv, yuv420p, 400×300, q=2-31, 256 kb/s, 25.00 tb(c) Stream #0.1: Audio: libmp3lame, 11024 Hz, mono, s16, 64 kb/s. Stream mapping: Stream #0.0 -> #0.0. Stream #0.1 -> #0.1. Error while opening codec for output stream # 0.1 – maybe incorrect parameters such as bit_rate, rate, width.

Oracle.jbo.rowcreateexception Jbo-25017 Error While Creating A New Entity Row Un Error Paulina Rubio Why Your Team Sucks 2017: New England Patriots – Deadspin – Some people are fans of the New England Patriots. But many, many more people are NOT fans of the New England Patriots. This 2017 Deadspin NFL team preview is for. INTRO: A – E – D – E / A

So, it makes sense that you might want to stream footage with it. Although deprecated from Debian, ffmpeg can be downloaded and compiled manually, using these instructions. Be aware that this can take a while, so make sure.

ffmbc doesn't like the AC3_5.1 audio stream: Stream #0.1[0x1100](und): Audio: ac3, 48000 Hz, 5.1, s16, 448 kb/s. Error while opening encoder for output stream #0.1 – maybe incorrect parameters. Are you familiar with ffmpeg? It's better to travel well than to arrive. Last Edit: 1 month, 1 week ago by hugly.

CRF Guide (Constant Rate Factor in x264. begin with the default and change it according to your subjective impression of the output. Is the. while retaining.

Installing OpenCV 2.4.1 in Ubuntu 12.04 LTS – Sebastian. – If in the last report FFMPEG appears as detected, then you can ignore that. If FFMPEG appears as not supported, then you need to install it first.

FAQ: How can I fix random crashing of vfw4x264.exe? This probably means you are encoding a file using an input mode other than DSS2, which can happen if the clip is.

AVANTI – FFmpeg/Avisynth GUI (support. vpre hq -crf 22 -threads 0 OUTPUT.mp4" from the FFmpeg dir its. Error while opening codec for output.

Error While Opening Codec For Output Stream #0.1 Ffmpeg. – how to recognize video codec of a file with ffmpeg. 230. stream 0 codec frame rate differs. 0.0 -> #0.0 Stream #0.1 -> #0.1 Error while opening encoder for output.

Oct 22, 2017. 5.1 Output the duration of a video; 5.2 Output stream information as JSON; 5.3 Create a screen of the video every X frames. Tip: If you receive Unknown encoder 'libvo-aacenc' error (given the fact that your ffmpeg is compiled with libvo -aacenc enabled), you may want to try -acodec libvo_aacenc , an.

Un Error Paulina Rubio Why Your Team Sucks 2017: New England Patriots – Deadspin – Some people are fans of the New England Patriots. But many, many more people are NOT fans of the New England Patriots. This 2017 Deadspin NFL team preview is for. INTRO: A – E – D – E / A Tengo una mala noticia

Oct 08, 2017  · Download Audacity for free. A free multi-track audio editor and recorder. Audacity is a free, easy-to-use, multi-track audio editor and recorder for.

Find the interesting details that can double as iconic examples. Write like you’re telling the story to a friend. Advertisement While the advice is especially targeted at journalists, just like that old sentence-structure trick, it applies to all kinds.

Stream #0.0: Video: libx264, yuv420p, 720×480 [PAR 186:157 DAR 279:157], q= 2-31, 200 kb/s, 90k tbn, 24 tbc. Stream #0.1(eng): Audio: libfaac, 48000 Hz, 5.1, s16, 64 kb/s. Stream mapping: Stream #0.0 -> #0.0. Stream #0.1 -> #0.1. Error while opening encoder for output stream #0.0 – maybe incorrect.

iPad – So, it’s finally here. The iPad. And one of the frequent questions over the last few weeks has been if and when the BBC iPlayer will arrive on it. Most of you will be aware of the recent discussions around Flash not being available on the iPad.

Error 5118 Sql Server This helps user to roll back where MS SQL Server 2005, 2008, and 2008 R2 upgrade successfully completed but the error message was introduced many years after. Many SQL databases are in thousands of gigabytes or terabytes. Welcome to the new Microsoft Exporting site! Microsoft products and solutions are available broadly in a large number

Home; Adam smith; capital asset; depreciation; durable ; economics; s; non-renewable resource; physical capital; production; service; stock

There are a lot of reasons not to stare at your phone while you’re driving. A little kid might jump into the road, a car in front of you might have to stop unexpectedly, or a giant fucking sinkhole might swallow the entire road. A man in China.

Error While Opening Codec For Output Stream #0.1 Ffmpeg how to recognize video codec of a file with ffmpeg. 230. Cutting the videos. ffmpeg output does not contain.

RECOMMENDED: Click here to fix Windows errors and improve system performance